18+

X men legends 2 rise of apocalypse скачать бесплатно


Люди Икс: Апокалипсис / Х-Mеn: Аросаlурsе [Ореn Mаttе]
Перевод: Профессиональный (полное дублирование)
Субтитры: отсутствуют
Формат: WЕB-DLRір, MKV, H.264, АС3
Страна: США
Режисер: Брайан Сингер
Жанр:
Продолжительность: 02:18:08
Год выпуска:
В ролях:
x men legends 2 rise of apocalypse скачать бесплатноОписание: События «Дней Минувшего Будущего» оказали колоссальное влияние на мир, где мутанты и люди борются за свое место под Солнцем.

В это нелегкое время Людям Икс предстоит столкнуться со своим самым опасным противником — древним мутантом Апокалипсисом, существом, схватка с которым может стать последней не только для мутантов, но и в принципе для всего человечества. В поисках способа победы над неуязвимым и бессмертным монстром Людям Икс предстоит узнать больше о происхождении своего вида. Но Апокалипсис неимоверно силен, и вероятность победы все уменьшается, ведь он твердо убежден, что только сильнейшие имеют право на выживание… Рейтинг на КиноПоиск: 7.052
Рейтинг на ІMDb: 7.1/10
Рейтинг MРАА: РG-13
Видео: 1920х1080р (16:9), 25 fрs, АVС MРЕG-4 (х264), Hіgh@L4.1, ~5120 Kbрs, 0.099 Bіts/(Ріхеl*Frаmе)
Аудио#1: русский АС3, 48.0 KHz, 6 сh, 448 Kbрs [Профессиональный (полное дублирование)] (BD СЕЕ)
Аудио#2: английский АС3, 48.0 KHz, 6 сh, 448 Kbрs (Оригинал)
Доп. информация: В конце финальных титров есть дополнительная сцена.


Скачать торрент трекер рутор орг закрыли зеркало нев рутор руторг

MRUTOr.org - стабильное зеркало рутор орг. batman begins ps2 скачать торрентЕсли у Вас заблокирован рутор, или вы не можете зайти на rutor org без анонимайзера, то наше зеркало rutor org для Вас. Скачивайте самые последние релизы с рутор.орг через торрент бесплатно. MRUTOr.org - свободный торрент трекер, где вы всегда сможете найти самые последние новинки игр для пк, новинки фильмов 2015, 2016 года. Также у нас можно скачать музыку торрент, игры для xbox и скачать аниме. В последнее время очень многие пользователи жалуются, что у них не работает рутор, или рутор заблокирован, мы позаботились о Вас, и создали свое зеркало рутора.

Не заблокированное, и бесплатное. Есть множество торрент трекеров, таких как tfile, rutracker, hdreactor и тд, но наш трекер - MRUTOr.org пожалуй самый удобный и простой в использовании. На нашем торрент трекере быстрее остальных трекеров появляются новинки мира кино, игр и сериалов. Мрутор.орг трекер без регистрации, а это значит, что не придется терять время на то, чтобы зарегистрироваться, можно сразу скачивать нужный Вам торрент. В наше "нелегкое" время многие торрент - трекеры подверглись блокировке.

Заблокирован рутрекер, рутор, ннмклуб и многие другие, но благодаря Мрутор.орг Вы сможете найти и скачать, все что Вам необходимо, без установки каких либо дополнений и плагинов. Общее
Уникальный идентификатор: 247641099400854431168546643452213475374 (0xBA4DF0DD7E17FBAC8494F54CD2FA382E)
god of war hd ps3 скачать торрентПолное имя: G:ФИЛЬМЫФАНТАСТИКИЛюди Иск.

Апокалипсис (2016).mkv
Формат: Matroska
Версия формата: Version 4 / Version 2
Размер файла: 5,80 Гбайт
Продолжительность: 2 ч.

18 м. Общий поток: 6011 Кбит/сек
Дата кодирования: UTC 2017-02-15 20:34:52
Программа кодирования: mkvmerge v6.2.0 ('Promised Land') built on Apr 28 2013 12:22:01
Библиотека кодирования: libebml v1.3.0 + libmatroska v1.4.0
Идентификатор: 1
Формат: AVC
Формат/Информация: Advanced Video Codec
Профиль формата: High@L4.1
Параметр CABAC формата: Да
Параметр ReFrames формата: 4 кадра
Идентификатор кодека: V_MPEG4/ISO/AVC
prince of persia ps2 скачать торрентПродолжительность: 2 ч.

18 м. Битрейт: 5120 Кбит/сек
Ширина: 1920 пикселей
Высота: 1080 пикселей
Соотношение сторон: 16:9
Режим частоты кадров: Постоянный
Частота кадров: 25,000 кадров/сек
Цветовое пространство: YUV
Субдискретизация насыщенности: 4:2:0
Битовая глубина: 8 бит
Тип развёртки: Прогрессивная
Бит/(Пиксели*Кадры): 0.099
Размер потока: 4,82 Гбайт (83%)
Заголовок: Люди Иск.

Апокалипсис (2016)
Библиотека кодирования: x264 core 142
Настройки программы: cabac=1 / ref=3 / deblock=1:0:0 / analyse=0x3:0x113 / me=hex / subme=7 / psy=1 / psy_rd=1.00:0.00 / mixed_ref=1 / me_range=16 / chroma_me=1 / trellis=1 / 8x8dct=1 / cqm=0 / deadzone=21,11 / fast_pskip=1 / chroma_qp_offset=-2 / threads=36 / lookahead_threads=6 / sliced_threads=0 / nr=0 / decimate=1 / interlaced=0 / bluray_compat=0 / constrained_intra=0 / bframes=6 / b_pyramid=2 / b_adapt=1 / b_bias=0 / direct=1 / weightb=1 / open_gop=0 / weightp=2 / keyint=200 / keyint_min=20 / scenecut=0 / intra_refresh=0 / rc_lookahead=40 / rc=2pass / mbtree=1 / bitrate=5120 / ratetol=1.0 / qcomp=0.60 / qpmin=0 / qpmax=69 / qpstep=4 / cplxblur=20.0 / qblur=0.5 / vbv_maxrate=7680 / vbv_bufsize=20480 / nal_hrd=none / filler=0 / ip_ratio=1.40 / aq=1:1.00
Язык: English
Default: Да
Forced: Нет
Идентификатор: 2
Формат/Информация: Audio Coding 3
Расширение режима: CM (complete main)
Параметр Endianness формата: Big
Идентификатор кодека: A_AC3
prince of persia trilogy ps3 скачать торрентПродолжительность: 2 ч.

18 м. Вид битрейта: Постоянный
Битрейт: 448 Кбит/сек
Каналы: 6 каналов
Расположение каналов: Front: L C R, Side: L R, LFE
Частота: 48,0 КГц
Битовая глубина: 16 бит
Метод сжатия: С потерями
Размер потока: 443 Мбайт (7%)
Заголовок: Дубляж
Язык: Russian
Default: Да
Forced: Нет
Идентификатор: 3
Формат/Информация: Audio Coding 3
Расширение режима: CM (complete main)
Параметр Endianness формата: Big
Идентификатор кодека: A_AC3
sony playstation 2 игры скачать бесплатноПродолжительность: 2 ч.

18 м. Вид битрейта: Постоянный
Битрейт: 448 Кбит/сек
Каналы: 6 каналов
Расположение каналов: Front: L C R, Side: L R, LFE
Частота: 48,0 КГц
Битовая глубина: 16 бит
Метод сжатия: С потерями
Размер потока: 443 Мбайт (7%)
Заголовок: Английский
Язык: English
Default: Нет
Forced: Нет
Год выпуска фильма: 2016
Субтитры: Русские, форсированные (вшитые)
Перевод: Дубляж [Blu-Ray CEE]
Режиссер: Брайан Сингер
В ролях: Джеймс МакЭвой, Майкл Фассбендер, Дженнифер Лоуренс, Николас Холт, Оскар Айзек, Роуз Бирн, Эван Питерс, Джош Хелман, Софи Тернер, Тай Шеридан
Качество: WEB-DL 1080p (Локализованный видеоряд)
Формат видео:.mkv
Видео: кодек: H.264, размер кадра: 1920x1080, битрейт: ~5 120 Kbps
Аудио #1: язык: русский, кодек: АС3 5.1, битрейт: ~448 kbps
Аудио #2: язык: английский, кодек: АС3 5.1, битрейт: ~448 kbps
Залил
mrutor.org Super USER
Категория
Раздают
Качают
Добавлен
12-Мар-2017 15:35 (2 дня 2 часа назад)
Размер
5.8 GB (6226928936 Bytes)
Добавить в
закладки
Файлы (1)

X men legends 2 rise of apocalypse

790, 791, 792


Добавить комментарий